Circulos Siniestros 2013 DVDRip Audio Latino





Circulos Siniestros 2013 DVDRip Audio Latino



Circulos Siniestros

Información

Descargar Gratis
Tamaño: 697 MB
Calidad de Imagen: DVDRip
Formato: AVI
Resolución: 640×272

Sinopsis

En la Pelicula Circulos Siniestros 2013 en calidad DVDRip con Audio Latino por Mega Putlocker y Mas. Cuando los nuevos padres Alex y Penny se retiran de la ciudad y se mudan a un pueblo del contorno, el estrés y la falta de sueño causados por el recién nacido provocan que empiecen a ver cosas extrañas en la nueva casa que quizás son reales o quizás no. Las constantes visiones que tiene de una extraña mujer hacen que se cuestionen si sufren alucinaciones o si realmente el lugar tiene una oscura presencia sobrenatural. En su frágil condición, esta espiral de realidad se convierte en delirio, Alex y Penny se encuentran a sí mismos impotentes a la hora de tratar con la terrorífica verdad que se esconde tras la casa.

Ficha Técnica

Título Original: Dark Circles
Título en Español: Círculos Siniestros
Audio: Español Latino
Subtítulos: No
País: Estados Unidos
Año: 2013
Género: Terror

  • Format : AVI
  • Format/Info : Audio Video Interleave
  • File size : 697 MiB
  • Duration : 1h 26mn
  • Overall bit rate : 1 126 Kbps
  • Writing application : VirtualDubMod 1.5.10.2 (build 2540/release)
  • Writing library : VirtualDubMod build 2540/release
  • Video
  • ID : 0
  • Format : MPEG-4 Visual
  • Format profile : Advanced [email protected]
  • Format settings, BVOP : 2
  • Format settings, QPel : No
  • Format settings, GMC : No warppoints
  • Format settings, Matrix : Default (H.263)
  • Muxing mode : Packed bitstream
  • Codec ID : XVID
  • Codec ID/Hint : XviD
  • Duration : 1h 26mn
  • Bit rate : 988 Kbps
  • Width : 640 pixels
  • Height : 272 pixels
  • Display aspect ratio : 2.35:1
  • Frame rate : 23.976 fps
  • Color space : YUV
  • Chroma subsampling : 4:2:0
  • Bit depth : 8 bits
  • Scan type : Progressive
  • Compression mode : Lossy
  • Bits/(Pixel*Frame) : 0.237
  • Stream size : 612 MiB (88%)
  • Writing library : XviD 64
  • Audio
  • ID : 1
  • Format : MPEG Audio
  • Format version : Version 1
  • Format profile : Layer 3
  • Mode : Joint stereo
  • Mode extension : MS Stereo
  • Codec ID : 55
  • Codec ID/Hint : MP3
  • Duration : 1h 26mn
  • Bit rate mode : Constant
  • Bit rate : 128 Kbps
  • Channel(s) : 2 channels
  • Sampling rate : 44.1 KHz
  • Compression mode : Lossy
  • Delay relative to video : 700ms
  • Stream size : 79.3 MiB (11%)
  • Alignment : Split accross interleaves
  • Interleave, duration : 42 ms (1.00 video frame)
  • Interleave, preload duration : 500 ms
  • Writing library : LAME3.98.2

Capturas

Circulos Siniestros




Tutorial Como Descargar => Ver Video