Seis Balas DVDrip Audio Latino





Seis Balas DVDrip Audio Latino



Seis Balas

Información

Descargar Gratis
DVDRip
Español Latino
Format : AVI
File size : 700 MiB
Duration : 1h 54mn

Sinopsis

En la Pelicula Seis Balas en calidad DVDRip con Audio Latino en 1 Link por los mejores servidores Mega Putlocker y mucho Mas. El veterano mercenario Samson Gaul sabe que en el fragor de la batalla cada bala cuenta. Cuando sus acciones dieron como resultado la muerte de víctimas indefensas se retiró pero ahora es la última esperanza de Andrew Fayden un padre desesperado. Fayden sabe luchar pero solo no está preparado para encontrar a su hija en las corruptas calles de un país extranjero. Juntos, ambos guerreros, no se detendrán ante nada para destrozar la red criminal que se aprovecha de los inocentes.

Ficha Técnica

Título original: 6 Bullets (AKA Six Bullets)
Otros Títulos: 6 balas / Seis balas
Año: 2012
Duración: 93 min.
País: Estados Unidos
Director: Ernie Barbarash
Guión: Chad Law, Evan law
Música: Neal Acree
Fotografía: Phil Parmet
Reparto: Jean-Claude Van Damme, Joe Flanigan, Bianca Bree, Kristopher Van Varenberg, Anna-Louise Plowman, Terese Cilluffo, Louis Dempsey, Charlotte Beaumont
Productora: Motion Picture Corporation of America (MPCA) / Rodin Entertainment
Género: Acción. Thriller | Crimen

Format : AVI
Format/Info : Audio Video Interleave
File size : 700 MiB
Duration : 1h 54mn
Overall bit rate : 856 Kbps
Writing application : VirtualDubMod 1.5.10.2 (build 2540/release)
Writing library : VirtualDubMod build 2540/release

Video
ID : 0
Format : MPEG-4 Visual
Format profile : Advanced [email protected]
Format settings, BVOP : 2
Format settings, QPel : No
Format settings, GMC : No warppoints
Format settings, Matrix : Default (H.263)
Codec ID : XVID
Codec ID/Hint : XviD
Duration : 1h 54mn
Bit rate : 734 Kbps
Width : 640 pixels
Height : 352 pixels
Display aspect ratio : 16:9
Frame rate : 23.976 fps
Color space : YUV
Chroma subsampling : 4:2:0
Bit depth : 8 bits
Scan type : Progressive
Compression mode : Lossy
Bits/(Pixel*Frame) : 0.136
Stream size : 601 MiB (86%)
Writing library : XviD 1.2.1 (UTC 2008-12-04)

Audio
ID : 1
Format : MPEG Audio
Format version : Version 1
Format profile : Layer 3
Mode : Joint stereo
Mode extension : MS Stereo
Codec ID : 55
Codec ID/Hint : MP3
Duration : 1h 54mn
Bit rate mode : Constant
Bit rate : 112 Kbps
Channel(s) : 2 channels
Sampling rate : 44.1 KHz
Compression mode : Lossy
Delay relative to video : 20ms
Stream size : 91.6 MiB (13%)
Alignment : Split accross interleaves
Interleave, duration : 42 ms (1.00 video frame)
Interleave, preload duration : 500 ms

Capturas

Seis Balas

Trailer




Tutorial Como Descargar => Ver Video