Esclavo de Dios DVDRip Audio Latino

Esclavo de Dios DVDRip Audio Latino

Esclavo de Dios

Información

Descargar Gratis
Tamaño: 684 Mb
Imagen: DVDRip
Formato: .avi

Sinopsis

En la Pelicula Esclavo de Dios en calidad DVDRip con Audio en Español Latino por los mejores servidores Mega Putlocker y Mas. Inspirada en hechos reales. Es la historia de Ahmed y David, dos personajes extremistas, uno Islámico y el otro Judío. Ahmed, que se entrena en el Líbano, es enviado a América Latina como un terrorista suicida. Por otro lado, David, formado en grupos de seguridad en Israel, es enviado a América Latina para detener con todas las medidas posibles los atentados.

Ficha Técnica

Titulo Original: Esclavo de Dios
Titulo Hispano: Esclavo de Dios
Idioma: Español Latino
País: Venezuela
Año: 2013
Género: Thriller | Basado en hechos reales

  • Format : AVI
  • Format/Info : Audio Video Interleave
  • File size : 685 MiB
  • Duration : 1h 30mn
  • Overall bit rate : 1 053 Kbps
  • Writing application : MEncoder SVN-r33883(20110719-gcc4.5.2)
  • Writing library : VirtualDub build 32842/release
  • Video
  • ID : 0
  • Format : MPEG-4 Visual
  • Format profile : Advanced [email protected]
  • Format settings, BVOP : 2
  • Format settings, QPel : No
  • Format settings, GMC : No warppoints
  • Format settings, Matrix : Default (H.263)
  • Muxing mode : Packed bitstream
  • Codec ID : XVID
  • Codec ID/Hint : XviD
  • Duration : 1h 30mn
  • Bit rate : 915 Kbps
  • Width : 640 pixels
  • Height : 352 pixels
  • Display aspect ratio : 16:9
  • Frame rate : 24.000 fps
  • Color space : YUV
  • Chroma subsampling : 4:2:0
  • Bit depth : 8 bits
  • Scan type : Progressive
  • Compression mode : Lossy
  • Bits/(Pixel*Frame) : 0.169
  • Stream size : 595 MiB (87%)
  • Writing library : XviD 64
  • Audio
  • ID : 1
  • Format : MPEG Audio
  • Format version : Version 1
  • Format profile : Layer 3
  • Mode : Joint stereo
  • Mode extension : MS Stereo
  • Codec ID : 55
  • Codec ID/Hint : MP3
  • Duration : 1h 30mn
  • Bit rate mode : Constant
  • Bit rate : 128 Kbps
  • Channel(s) : 2 channels
  • Sampling rate : 48.0 KHz
  • Compression mode : Lossy
  • Stream size : 83.3 MiB (12%)
  • Alignment : Split accross interleaves
  • Interleave, duration : 42 ms (1.00 video frame)
  • Interleave, preload duration : 500 ms
  • Writing library : LAME3.98.4

Capturas

Esclavo de Dios

  De acá a la China HD 720p Latino (2019)

Enlaces VIP



Enlaces Publicos Opción 1

Ver Enlaces

Enlaces Publicos Opción 2

Ver Enlaces

Contraseña: www.descargatelocorp.com

Web del Autor

CONTENIDO RELACIONADO

Sin Nombre HD 1080p Latino (2009)
Creed Corazon de Campeon DVDRip Latino
Ploey Cabeza de Chorlito (2018) HD 1080p Latino
The Young Messiah HD 1080p Latino
La Liga de los 5 (2020) HD 720p Latino

(1) Comentarios - Esclavo de Dios DVDRip Audio Latino

  1. Apache dice:

    Una historia en un 90% parecida a Omar Mateen, el terrorista del Orlando.

Deja una respuesta

Tu dirección de correo electrónico no será publicada. Los campos obligatorios están marcados con *